<?xml version="1.0" standalone="no"?><!DOCTYPE svg PUBLIC "-//W3C//DTD SVG 1.1//EN" "http://www.w3.org/Graphics/SVG/1.1/DTD/svg11.dtd" >
<svg xmlns="http://www.w3.org/2000/svg">
<defs>
    <font id="remixicon" horiz-adv-x="1200">
    <font-face font-family="remixicon"
      units-per-em="1200" ascent="1020"
      descent="180" />
    <missing-glyph horiz-adv-x="0" /><glyph glyph-name="search-line"
            unicode="&#xF0D1;"
            horiz-adv-x="1200" d="M893.7075 197.0025L1107.8425 -17.1324999999999L1037.1325 -87.8425L822.9975000000001 126.2925C746.0025 64.6924999999999 648.3575000000001 27.8425 542.1575 27.8425C293.7575000000001 27.8425 92.1575 229.4425 92.1575 477.8425C92.1575 726.2425 293.7575000000001 927.8425 542.1575 927.8425C790.5575 927.8425 992.1575 726.2425 992.1575 477.8425C992.1575 371.6425 955.3075000000002 273.9975 893.7075 197.0025zM793.3925 234.1025C854.5324999999999 297.1125 892.1575 383.0625 892.1575 477.8425C892.1575 671.2175 735.5325 827.8425 542.1575 827.8425C348.7825000000001 827.8425 192.1575 671.2175 192.1575 477.8425C192.1575 284.4675 348.7825000000001 127.8425 542.1575 127.8425C636.9375 127.8425 722.8875 165.4675000000001 785.8975 226.6075L793.3925 234.1025z" /><glyph glyph-name="flashlight-fill"
            unicode="&#xED3C;"
            horiz-adv-x="1200" d="M650 520H1000L550 -130V320H200L650 970V520z" /><glyph glyph-name="arrow-drop-down-line"
            unicode="&#xEA50;"
            horiz-adv-x="1200" d="M600.002 278.57875L387.868 490.70875L458.579 561.42125L600.002 419.99875L741.422 561.42125L812.1320000000001 490.70875L600.002 278.57875z" /><glyph glyph-name="arrow-right-line"
            unicode="&#xEA6C;"
            horiz-adv-x="1200" d="M808.58 469.997L540.38 738.1975L611.09 808.9079999999999L1000 419.997L611.09 31.092L540.38 101.802L808.58 369.997H200V469.997H808.58z" /><glyph glyph-name="close-line"
            unicode="&#xEB99;"
            horiz-adv-x="1200" d="M599.999 490.7080000000001L847.489 738.197L918.199 667.4865000000001L670.7090000000001 419.9980000000001L918.199 172.5130000000002L847.489 101.803L599.999 349.288L352.512 101.803L281.801 172.5130000000002L529.289 419.9980000000001L281.801 667.4865000000001L352.512 738.197L599.999 490.7080000000001z" /><glyph glyph-name="time-line"
            unicode="&#xF20F;"
            horiz-adv-x="1200" d="M600 -80C323.8575 -80 100 143.86 100 420C100 696.1424999999999 323.8575 920 600 920C876.14 920 1100 696.1424999999999 1100 420C1100 143.86 876.14 -80 600 -80zM600 20C820.915 20 1000 199.085 1000 420C1000 640.914 820.915 820 600 820C379.086 820 200 640.914 200 420C200 199.085 379.086 20 600 20zM650 420H850V320H550V670H650V420z" /><glyph glyph-name="user-3-line"
            unicode="&#xF256;"
            horiz-adv-x="1200" d="M1000 -105H900V-5C900 77.845 832.845 145 750 145H450C367.1575 145 300 77.845 300 -5V-105H200V-5C200 133.0699999999999 311.929 245 450 245H750C888.0699999999999 245 1000 133.0699999999999 1000 -5V-105zM600 345C434.3145 345 300 479.3149999999999 300 645C300 810.6855 434.3145 945 600 945C765.6850000000001 945 900 810.6855 900 645C900 479.3149999999999 765.6850000000001 345 600 345zM600 445C710.4549999999999 445 800 534.543 800 645C800 755.457 710.4549999999999 845 600 845C489.543 845 400 755.457 400 645C400 534.543 489.543 445 600 445z" /><glyph glyph-name="logout-box-line"
            unicode="&#xEED8;"
            horiz-adv-x="1200" d="M275 120H375V20H975V820H375V720H275V870C275 897.614 297.386 920 325 920H1025C1052.6149999999998 920 1075 897.614 1075 870V-30C1075 -57.615 1052.6149999999998 -80 1025 -80H325C297.386 -80 275 -57.615 275 -30V120zM375 470H725V370H375V220L125 420L375 620V470z" /><glyph glyph-name="home-7-line"
            unicode="&#xEE23;"
            horiz-adv-x="1200" d="M950 -71.2140625000001H250C222.386 -71.2140625000001 200 -48.8290625000001 200 -21.2140625000001V428.7859375L50 428.7859375L566.365 898.2109374999999C585.4350000000001 915.5484375 614.5649999999999 915.5484375 633.635 898.2109374999999L1150 428.7859375L1000 428.7859375V-21.2140625000001C1000 -48.8290625000001 977.6149999999998 -71.2140625000001 950 -71.2140625000001zM300 28.7859374999999H900V520.9134374999999L600 793.6409375L300 520.9134374999999V28.7859374999999zM600 228.7859375C530.965 228.7859375 475 284.7509375 475 353.7859375C475 422.8209374999999 530.965 478.7869374999999 600 478.7869374999999C669.035 478.7869374999999 725 422.8209374999999 725 353.7859375C725 284.7509375 669.035 228.7859375 600 228.7859375z" /><glyph glyph-name="notification-badge-line"
            unicode="&#xEF98;"
            horiz-adv-x="1200" d="M617.07 820C606.015 788.722 600 755.0635 600 720H200V20H900V420C935.065 420 968.72 426.015 1000 437.0700000000001V-30C1000 -57.615 977.615 -80 950 -80H150C122.386 -80 100 -57.615 100 -30V770C100 797.614 122.386 820 150 820H617.07zM900 620C955.23 620 1000 664.7715000000001 1000 720C1000 775.2284999999999 955.23 820 900 820C844.77 820 800 775.2284999999999 800 720C800 664.7715000000001 844.77 620 900 620zM900 520C789.5450000000001 520 700 609.543 700 720C700 830.457 789.5450000000001 920 900 920C1010.455 920 1100 830.457 1100 720C1100 609.543 1010.455 520 900 520z" /><glyph glyph-name="moon-fill"
            unicode="&#xEF72;"
            horiz-adv-x="1200" d="M569.5074999999999 919.5285C496.259 851.0875 450.4725 753.6265 450.4725 645.472C450.4725 438.3665 618.3675 270.4715 825.4725 270.4715C933.6275 270.4715 1031.0875 316.2565 1099.5275000000001 389.5065C1083.5375 127.7865000000001 866.2175000000001 -79.5285 600.4725 -79.5285C324.33 -79.5285 100.4725 144.3315 100.4725 420.4715C100.4725 686.2144999999999 307.7869999999999 903.537 569.5074999999999 919.5285z" /><glyph glyph-name="sun-fill"
            unicode="&#xF1BC;"
            horiz-adv-x="1200" d="M600 120C434.3145 120 300 254.315 300 420C300 585.6855 434.3145 720 600 720C765.6850000000001 720 900 585.6855 900 420C900 254.315 765.6850000000001 120 600 120zM550 970H650V820H550V970zM550 20H650V-130H550V20zM175.736 773.5535L246.4465 844.264L352.5125 738.198L281.802 667.4875L175.736 773.5535zM847.485 101.8L918.2 172.515L1024.2649999999999 66.4449999999999L953.555 -4.2649999999999L847.485 101.8zM953.555 844.264L1024.2649999999999 773.5535L918.2 667.4875L847.485 738.198L953.555 844.264zM281.802 172.515L352.5125 101.8L246.4465 -4.2649999999999L175.736 66.4449999999999L281.802 172.515zM1150 470V370H1000V470H1150zM200 470V370H50V470H200z" /><glyph glyph-name="thumb-up-line"
            unicode="&#xF207;"
            horiz-adv-x="1200" d="M729.99 560.982209876265H1050C1105.23 560.982209876265 1150 516.2107098762649 1150 460.9837098762649V355.7637098762649C1150 342.703709876265 1147.4399999999998 329.768709876265 1142.47 317.688709876265L987.75 -58.056290123735C980.035 -76.791290123735 961.7749999999997 -89.016290123735 941.5150000000002 -89.016290123735H100C72.386 -89.016290123735 50 -66.6312901237352 50 -39.0162901237351V460.9837098762649C50 488.5967098762649 72.386 510.982209876265 100 510.982209876265H274.092C290.3385 510.982209876265 305.5715 518.8757098762649 314.9405 532.1482098762649L587.61 918.4309598762648C594.735 928.524409876265 608.165 931.899809876265 619.215 926.374559876265L709.92 881.0232098762649C762.5 854.7317098762649 789.6550000000001 795.352709876265 775.155 738.3812098762648L729.99 560.982209876265zM350 431.6087098762649V10.9837098762649H908.03L1050 355.7637098762649V460.9837098762649H729.99C664.755 460.9837098762649 616.99 522.4347098762648 633.08 585.6532098762649L678.245 763.0517098762649C681.145 774.4462098762649 675.715 786.3222098762649 665.195 791.5802098762649L632.14 808.1087098762649L396.6375000000001 474.4797098762649C384.1425 456.7787098762649 368.1705 442.268709876265 350 431.6087098762649zM250 410.9837098762649H150V10.9837098762649H250V410.9837098762649z" /><glyph glyph-name="thumb-up-fill"
            unicode="&#xF206;"
            horiz-adv-x="1200" d="M100 524.0054235176428H250V-75.9960764823572H100C72.386 -75.9960764823572 50 -53.6110764823572 50 -25.9960764823572V474.0054235176429C50 501.6194235176428 72.386 524.0054235176428 100 524.0054235176428zM364.6445 588.6499235176427L684.6700000000001 908.6734235176428C693.465 917.4709235176427 707.395 918.4604235176428 717.345 910.9959235176428L759.975 879.0239235176427C784.21 860.8479235176428 795.13 829.8774235176429 787.655 800.5209235176428L729.99 574.0054235176428H1050C1105.23 574.0054235176428 1150 529.2339235176428 1150 474.0054235176429V368.7889235176428C1150 355.7239235176429 1147.4399999999998 342.7889235176428 1142.47 330.7139235176429L987.75 -45.0310764823573C980.035 -63.7660764823572 961.7749999999997 -75.9960764823572 941.5150000000002 -75.9960764823572H400C372.386 -75.9960764823572 350 -53.6110764823572 350 -25.9960764823572V553.2944235176428C350 566.5554235176428 355.2680000000001 579.2729235176428 364.6445 588.6499235176427z" /><glyph glyph-name="external-link-line"
            unicode="&#xECAF;"
            horiz-adv-x="1200" d="M500 720V620H250V70H800V320H900V20C900 -7.615 877.6149999999999 -30 850 -30H200C172.386 -30 150 -7.615 150 20V670C150 697.614 172.386 720 200 720H500zM1050 870V470H950L949.995 699.3499999999999L560.355 309.645L489.6445 380.355L879.245 770H650V870H1050z" /><glyph glyph-name="twitter-fill"
            unicode="&#xF23A;"
            horiz-adv-x="1200" d="M1109.6095 736.0585978383264C1071.4395000000002 719.1735978383264 1030.9595000000002 708.0835978383263 989.5145000000002 703.1555978383263C1033.1795000000002 729.2950978383263 1065.8545 770.4160978383264 1081.4495 818.8585978383263C1040.4195000000002 794.4805978383264 995.5095 777.3225978383264 948.6745 768.1305978383264C909.1395 810.3080978383264 853.8845 834.2095978383264 796.0745000000001 834.1440978383264C680.6145 834.1440978383264 586.9695 740.5305978383263 586.9695 625.0195978383264C586.9695 608.6320978383263 588.8495 592.7400978383263 592.3645 577.4065978383263C418.508 586.1590978383264 264.488 669.3585978383263 161.3235 795.8905978383264C142.749 763.9775978383263 132.987 727.7020978383264 133.0365 690.7775978383264C133.0365 618.2315978383264 169.9645 554.1990978383263 226.059 516.7110978383264C192.853 517.7610978383264 160.3785 526.7290978383264 131.3435 542.8745978383264C131.3115 541.9960978383264 131.3115 541.1175978383263 131.3115 540.2870978383264C131.3115 438.9410978383264 203.394 354.4010978383265 299.084 335.2060978383264C281.1245 330.3460978383264 262.6005 327.8910978383264 243.9955 327.9060978383264C230.483 327.9060978383264 217.37 329.1510978383264 204.624 331.5960978383264C231.25 248.5360978383265 308.4275 188.0660978383264 399.9645 186.4060978383263C325.891 128.2710978383264 234.419 96.7310978383265 140.256 96.8660978383263C123.5905 96.8510978383264 106.939 97.8360978383264 90.3905 99.8060978383264C185.9865 38.3510978383264 297.2605 5.7360978383264 410.9055 5.8560978383263C795.5645 5.8560978383263 1005.8845000000002 324.4860978383264 1005.8845000000002 600.8055978383264C1005.8845000000002 609.8460978383263 1005.6645 618.9180978383264 1005.2645 627.8625978383265C1046.1995 657.4385978383265 1081.5345 694.0775978383264 1109.6095 736.0585978383264z" /><glyph glyph-name="facebook-fill"
            unicode="&#xECBC;"
            horiz-adv-x="1200" d="M687.5 345H812.5L862.5 545H687.5V645C687.5 696.469 687.5 745 787.5 745H862.5V912.995C846.2149999999999 915.1575 784.65 920 719.645 920C583.92 920 487.5 837.157 487.5 685.0145V545H337.5V345H487.5V-80H687.5V345z" /><glyph glyph-name="menu-line"
            unicode="&#xEF3E;"
            horiz-adv-x="1200" d="M150 820H1050V720H150V820zM150 470H1050V370H150V470zM150 120H1050V20H150V120z" /><glyph glyph-name="pinterest-fill"
            unicode="&#xEFFF;"
            horiz-adv-x="1200" d="M668.2902404902051 915.281469391445C420.961240490205 949.368469391445 186.3967404902051 795.7499693914449 118.7372404902051 555.374469391445C51.077740490205 314.997469391445 171.060740490205 61.5424693914449 399.8407404902051 -38.442530608555C396.8372404902051 -0.037530608555 399.5727404902051 38.602469391445 407.9562404902051 76.1974693914449C417.1872404902051 118.1324693914448 472.765740490205 349.342469391445 472.765740490205 349.342469391445C461.690740490205 374.137469391445 456.151740490205 401.052469391445 456.534740490205 428.2074693914449C456.534740490205 502.457469391445 499.381740490205 557.8549693914449 552.690240490205 557.8549693914449C572.065240490205 558.1434693914449 590.610240490205 549.9884693914449 603.495240490205 535.511969391445C616.3802404902051 521.0354693914448 622.335240490205 501.6674693914449 619.8052404902049 482.452469391445C619.8052404902049 437.442469391445 590.8852404902051 369.347469391445 575.845240490205 305.487469391445C569.7752404902051 281.722469391445 575.360240490205 256.487469391445 590.8902404902051 237.502469391445C606.4202404902051 218.5224693914451 630.050240490205 208.0574693914449 654.5402404902051 209.307469391445C749.425240490205 209.307469391445 813.0802404902049 330.877469391445 813.0802404902049 474.372469391445C813.0802404902049 584.399969391445 740.195240490205 666.727469391445 605.9202404902051 666.727469391445C541.0052404902051 669.236969391445 477.899240490205 645.0224693914449 431.316740490205 599.7309693914449C384.7337404902051 554.4394693914448 358.747240490205 492.0274693914449 359.4167404902051 427.0524693914449C357.986740490205 391.392469391445 369.4882404902051 356.417469391445 391.802240490205 328.567469391445C400.385740490205 322.1824693914449 403.6977404902051 310.877469391445 399.9177404902051 300.867469391445C397.610240490205 291.637469391445 391.802240490205 269.7074693914449 389.494240490205 261.627469391445C388.5212404902051 256.102469391445 384.984740490205 251.362469391445 379.963240490205 248.862469391445C374.9417404902051 246.357469391445 369.0307404902051 246.382469391445 364.0322404902051 248.9324693914449C294.8002404902051 276.632469391445 262.1837404902051 352.807469391445 262.1837404902051 439.747469391445C262.1837404902051 582.0914693914449 381.417240490205 752.5174693914449 619.8852404902051 752.5174693914449C809.695240490205 752.5174693914449 935.855240490205 613.6374693914449 935.855240490205 465.1424693914449C935.855240490205 269.7074693914449 827.0452404902051 122.747469391445 666.195240490205 122.747469391445C617.335240490205 121.197469391445 571.070240490205 144.697469391445 543.500240490205 185.072469391445C543.500240490205 185.072469391445 514.575240490205 69.2724693914449 508.880240490205 47.347469391445C497.255740490205 9.5074693914449 480.094740490205 -26.402530608555 457.9577404902051 -59.2175306085551C504.090240490205 -73.212530608555 552.060240490205 -80.2175306085551 600.2702404902051 -79.997530608555C732.8852404902051 -80.0825306085551 860.095240490205 -27.4175306085551 953.850240490205 66.402469391445C1047.6052404902048 160.217469391445 1100.200240490205 287.482469391445 1100.050240490205 420.127469391445C1099.905240490205 669.8494693914449 915.6202404902052 881.194469391445 668.2902404902051 915.281469391445z" /><glyph glyph-name="linkedin-fill"
            unicode="&#xEEB5;"
            horiz-adv-x="1200" d="M323.5007500466773 769.9766011813349C323.4822500466772 729.2611011813349 298.7807500466774 692.6221011813349 261.0437500466773 677.3366011813348C223.3067500466773 662.0506011813349 180.0702500466773 671.1706011813349 151.7217500466773 700.3956011813349C123.3732500466773 729.6211011813349 115.5742500466773 773.1156011813349 132.0017500466773 810.3696011813349C148.4297500466773 847.6236011813348 185.8037500466773 871.1981011813349 226.5007500466773 869.9766011813349C280.5542500466773 868.3541011813348 323.5252500466773 824.0546011813349 323.5007500466773 769.9766011813349zM326.5007500466773 595.9766011813349H126.5007500466773V-30.0218988186652H326.5007500466773V595.9766011813349zM642.5017500466772 595.9766011813349H443.5007500466773V-30.0218988186652H640.5017500466772V298.4781011813349C640.5017500466772 481.4781011813349 879.0017500466772 498.4781011813349 879.0017500466772 298.4781011813349V-30.0218988186652H1076.5017500466772V366.4781011813349C1076.5017500466772 674.9766011813349 723.5017500466772 663.4766011813349 640.5017500466772 511.9781011813349L642.5017500466772 595.9766011813349z" /><glyph glyph-name="github-fill"
            unicode="&#xEDCA;"
            horiz-adv-x="1200" d="M600.0005 907.6650761298216C323.7495 907.6650761298216 99.9995 683.9150761298216 99.9995 407.6650761298216C99.9995 186.4150761298217 243.1245 -0.4599238701785 441.8745 -66.7099238701784C466.8745 -71.0849238701784 476.2495 -56.0849238701784 476.2495 -42.9599238701784C476.2495 -31.0849238701784 475.6245 8.2900761298216 475.6245 50.1650761298218C349.9995 27.0400761298216 317.4995 80.7900761298215 307.4995 108.9150761298215C301.8745 123.2900761298217 277.4995 167.6650761298217 256.2495 179.5400761298217C238.7495 188.9150761298217 213.7495 212.0400761298217 255.6245 212.6650761298217C294.9995 213.2900761298217 323.1245 176.4150761298217 332.4995 161.4150761298217C377.4995 85.7900761298216 449.3745 107.0400761298216 478.1245 120.1650761298217C482.4995 152.6650761298215 495.6245 174.5400761298215 510.0005 187.0400761298215C398.7495 199.5400761298215 282.4995 242.6650761298217 282.4995 433.9150761298216C282.4995 488.2900761298216 301.8745 533.2900761298216 333.7495 568.2900761298216C328.7495 580.7900761298216 311.2495 632.0400761298216 338.7495 700.7900761298216C338.7495 700.7900761298216 380.6245 713.9150761298216 476.2495 649.5400761298216C516.2505000000001 660.7900761298216 558.7505 666.4150761298216 601.2505 666.4150761298216C643.7505 666.4150761298216 686.2505000000001 660.7900761298216 726.2505 649.5400761298216C821.8755000000001 714.5400761298216 863.7505 700.7900761298216 863.7505 700.7900761298216C891.2505000000001 632.0400761298216 873.7505 580.7900761298216 868.7505000000001 568.2900761298216C900.6255000000001 533.2900761298216 920.0005 488.9150761298216 920.0005 433.9150761298216C920.0005 242.0400761298217 803.1255000000001 199.5400761298215 691.8755 187.0400761298215C710.0005000000001 171.4150761298215 725.6255000000001 141.4150761298217 725.6255000000001 94.5400761298216C725.6255000000001 27.6650761298215 725.0005 -26.0849238701784 725.0005 -42.9599238701784C725.0005 -56.0849238701784 734.3755 -71.7099238701784 759.3755 -66.7099238701784C962.9005 2.0000761298217 1099.9455 192.8500761298217 1100.0004999999999 407.6650761298216C1100.0004999999999 683.9150761298216 876.2505 907.6650761298216 600.0005 907.6650761298216z" /><glyph glyph-name="youtube-fill"
            unicode="&#xF2D4;"
            horiz-adv-x="1200" d="M612.2175000000001 819.9775C638.9225 819.8305 705.7375000000001 819.1845 776.7275000000001 816.3409999999999L801.8975000000002 815.2434999999999C873.3725 811.8595 944.7875 806.0785 980.2075 796.2025C1027.4525 782.93 1064.5875 744.2024999999999 1077.1375 695.1115C1097.1225 617.1569999999999 1099.6225000000002 465.0075000000001 1099.9325000000001 428.1874999999999L1099.9775 420.5574999999999L1099.9775 420.0224999999999C1099.9775 420.0224999999999 1099.9775 419.8375 1099.9775 419.4825L1099.9325000000001 411.8525C1099.6225000000002 375.0325000000001 1097.1225 222.8824999999999 1077.1375 144.9274999999999C1064.4125000000001 95.6575 1027.2775000000001 56.9275 980.2075 43.8375C944.7875 33.9624999999999 873.3725 28.1825 801.8975000000002 24.7974999999999L776.7275000000001 23.7025C705.7375000000001 20.8575000000001 638.9225 20.2125 612.2175000000001 20.0625L600.4975 20.0225L599.9775000000001 20.0225C599.9775000000001 20.0225 599.8025 20.0225 599.4575 20.0225L587.7475000000001 20.0625C531.2275000000001 20.3724999999999 294.9085 22.9275 219.7480000000001 43.8375C172.5025000000001 57.1125 135.3685000000001 95.8374999999999 122.816 144.9274999999999C102.8325 222.8824999999999 100.3345 375.0325000000001 100.0225 411.8525V428.1874999999999C100.3345 465.0075000000001 102.8325 617.1569999999999 122.816 695.1115C135.5425 744.3844999999999 172.6765 783.1115 219.7480000000001 796.2025C294.9085 817.116 531.2275000000001 819.6664999999999 587.7475000000001 819.9775H612.2175000000001zM499.978 595.0204999999999V245.0224999999999L799.9775000000001 420.0224999999999L499.978 595.0204999999999z" /><glyph glyph-name="play-fill"
            unicode="&#xF00A;"
            horiz-adv-x="1200" d="M878.8338732446518 399.1993767553483L348.9013732446517 45.9143767553483C337.4133732446517 38.2543767553482 321.8913732446517 41.3593767553483 314.2323732446518 52.8443767553483C311.4948732446518 56.9543767553483 310.0338732446517 61.7793767553483 310.0338732446517 66.7143767553483V773.2878767553483C310.0338732446517 787.0953767553483 321.2268732446517 798.2878767553483 335.0338732446517 798.2878767553483C339.9693732446518 798.2878767553483 344.7948732446518 796.8268767553483 348.9013732446517 794.0893767553483L878.8338732446518 440.8043767553484C890.3188732446517 433.1443767553483 893.4238732446518 417.6193767553483 885.7638732446517 406.1343767553483C883.9338732446517 403.3893767553483 881.5788732446517 401.0293767553483 878.8338732446518 399.1993767553483z" /><glyph glyph-name="instagram-line"
            unicode="&#xEE66;"
            horiz-adv-x="1200" d="M600.0005 570C517.1305000000001 570 449.9995 502.845 449.9995 420C449.9995 337.135 517.1555 270 600.0005 270C682.8655000000001 270 750.0005 337.155 750.0005 420C750.0005 502.865 682.8455 570 600.0005 570zM600.0005 670C738.0205000000001 670 850.0005000000001 558.145 850.0005000000001 420C850.0005000000001 281.975 738.1455 170 600.0005 170C461.976 170 349.9995 281.855 349.9995 420C349.9995 558.0235 461.8545 670 600.0005 670zM925.0005000000002 682.5425C925.0005000000002 648.037 896.9605 620.0415 862.5005000000001 620.0415C827.9955 620.0415 800.0005000000001 648.08 800.0005000000001 682.5425C800.0005000000001 717.005 828.0355 745 862.5005000000001 745C896.9155 745.0435 925.0005000000002 717.005 925.0005000000002 682.5425zM600.0005 820C476.2755000000001 820 456.1095 819.6725 398.564 817.11C359.3580000000001 815.2695 333.077 809.9965 308.6585 800.5165C286.9585000000001 792.1005 271.305 782.0509999999999 254.6265 765.3725C237.884 748.63 227.8525 733.0185 219.4705 711.3085000000001C209.9685 686.8340000000001 204.697 660.5944999999999 202.8895 621.4425C200.302 566.24 199.9995 546.9475 199.9995 420C199.9995 296.275 200.327 276.11 202.889 218.5699999999999C204.7305 179.38 210.0105 153.0600000000001 219.4675 128.6999999999999C227.9055 106.97 237.9755000000001 91.28 254.5735 74.68C271.3820000000001 57.895 287.04 47.8299999999999 308.544 39.53C333.26 29.975 359.5245 24.6950000000001 398.5565000000001 22.89C453.7595 20.305 473.052 20 600.0005 20C723.7255 20 743.8905000000001 20.3299999999999 801.4304999999999 22.89C840.5355 24.725 866.8755 30.0199999999999 891.3005000000002 39.4699999999999C912.9705 47.885 928.7105 57.9899999999999 945.3205 74.5750000000001C962.1305 91.41 972.1755 107.03 980.4855000000002 128.585C990.0155 153.21 995.3055 179.51 997.1105000000002 218.555C999.6955000000002 273.76 1000.0005000000002 293.055 1000.0005000000002 420C1000.0005000000002 543.7239999999999 999.6705 563.8895 997.1105000000002 621.4314999999999C995.2705 660.547 989.9755 686.9255 980.5155 711.341C972.1205000000002 732.981 962.0355 748.6825 945.3705000000002 765.3725C928.6005 782.1424999999999 913.0305 792.1535 891.3055 800.529C866.8505000000001 810.023 840.5705 815.302 801.4405000000002 817.1095C746.2405000000001 819.6975 726.9455 820 600.0005 820zM600.0005 920C735.8305 920 752.7905000000001 919.5 806.1255 917C859.3305 914.5415 895.6255 906.125 927.5005 893.75C960.4555 881.0415 988.2905 863.875 1016.0805000000003 836.0835C1043.8305 808.2915 1061.0004999999999 780.375 1073.7504999999999 747.5C1086.0805 715.6665 1094.5004999999999 679.3335 1097.0004999999999 626.125C1099.3754999999999 572.7915 1100.0004999999999 555.8335 1100.0004999999999 420C1100.0004999999999 284.1650000000001 1099.5004999999999 267.2100000000001 1097.0004999999999 213.8750000000001C1094.5404999999998 160.6650000000001 1086.0805 124.3749999999999 1073.7504999999999 92.5C1061.0405 59.5400000000001 1043.8305 31.71 1016.0805000000003 3.915C988.2905 -23.835 960.3305 -41 927.5005 -53.75C895.6255 -66.085 859.3305 -74.5 806.1255 -77C752.7905000000001 -79.375 735.8305 -80 600.0005 -80C464.1659999999999 -80 447.2075 -79.5 393.8745 -77C340.6660000000001 -74.54 304.4160000000001 -66.085 272.4995 -53.75C239.5825 -41.04 211.7075 -23.835 183.916 3.915C156.1245 31.71 138.9995 59.665 126.2495 92.5C113.8745 124.3749999999999 105.4995 160.6650000000001 102.9995 213.8750000000001C100.6245 267.2100000000001 99.9995 284.1650000000001 99.9995 420C99.9995 555.8335 100.4995 572.7915 102.9995 626.125C105.4575 679.375 113.8745 715.625 126.2495 747.5C138.9575 780.4165 156.1245 808.2915 183.916 836.0835C211.7075 863.875 239.6245 881 272.4995 893.75C304.3745 906.125 340.6245 914.5 393.8745 917C447.2075 919.375 464.1659999999999 920 600.0005 920z" /><glyph glyph-name="apple-fill"
            unicode="&#xEA3F;"
            horiz-adv-x="1200" d="M607.0349483164694 655.8282516585983C563.2349483164692 655.8282516585983 495.4339483164692 705.6282516585983 424.0339483164692 703.8282516585983C329.8339483164692 702.6282516585983 243.4339483164692 649.2287516585983 194.8339483164692 564.6287516585982C97.0339483164692 394.8272516585983 169.6339483164692 144.0272516585984 265.0339483164693 6.0272516585983C311.8339483164692 -61.1727483414018 367.0339483164692 -136.7727483414017 440.2339483164692 -134.3727483414016C510.4339483164692 -131.3727483414016 536.8349483164691 -88.7727483414017 622.0349483164691 -88.7727483414017C706.6349483164693 -88.7727483414017 730.6349483164693 -134.3727483414016 805.0349483164691 -132.5727483414017C880.6349483164693 -131.3727483414016 928.6349483164691 -64.1727483414016 974.834948316469 3.6272516585983C1028.2349483164692 81.6272516585983 1050.4349483164692 157.2272516585984 1051.6349483164693 161.4272516585983C1049.8349483164693 162.0272516585983 904.6349483164691 217.8272516585984 902.8349483164694 385.8272516585983C901.6349483164691 526.2287516585983 1017.4349483164692 593.4282516585982 1022.8349483164694 596.4282516585982C956.8349483164694 693.0282516585983 855.4349483164692 703.8282516585983 820.0349483164694 706.2282516585982C727.6349483164693 713.4282516585982 650.2349483164692 655.8282516585983 607.0349483164694 655.8282516585983zM763.0349483164691 797.4282516585982C802.0349483164691 844.2282516585982 827.8349483164693 909.6282516585982 820.6349483164693 974.4284516585984C764.8349483164693 972.0284516585982 697.6349483164693 937.2282516585984 657.4349483164692 890.4282516585982C621.4349483164692 849.0282516585983 590.2349483164692 782.4282516585982 598.6349483164693 718.8282516585983C660.4349483164692 714.0282516585983 724.0349483164694 750.6282516585983 763.0349483164691 797.4282516585982z" /><glyph glyph-name="dribbble-line"
            unicode="&#xEC64;"
            horiz-adv-x="1200" d="M999.435 441.42C995.145 522.7435 966.565 597.6275 920.815 658.9515C908.745 645.7964999999999 893.925 631.51 874.785 615.4205C829.4050000000001 577.271 774.435 542.8465 709.1700000000001 514.9499999999999C717.49 497.47 725.145 480.505 731.88 464.51L731.9399999999999 464.375C733.26 461.29 734.3950000000001 458.4699999999999 736.605 452.9100000000001C736.895 452.1900000000001 737.165 451.515 737.425 450.875C813.105 459.39 892.8800000000001 456.255 970.2450000000002 445.775C980.53 444.385 990.25 442.9250000000001 999.435 441.42zM530.22 813.935C538.915 801.6895 548.01 788.5705 559.015 772.311C589.645 727.0550000000001 619.8000000000001 679.3045 648.02 630.2465C653.745 620.292 659.35 610.3555 664.82 600.444C725.9649999999999 624.5035 776.48 654.8595 817.19 688.7570000000001C833.6550000000001 702.4685 846.9150000000001 715.35 857.015 726.514C787.505 784.8615 697.855 820 600 820C576.1999999999999 820 552.88 817.921 530.22 813.935zM212.633 520.1225C241.5725 520.774 274.2335 522.5295 314.6515 526.241C395.012 533.6210000000001 477.0705 546.8755 557.745 567.363C528.595 618.1395 496.944 668.8344999999999 464.726 717.311C449.2395 740.6125 434.1785 762.504 422.742 778.679C319.7705000000001 727.6935000000001 241.897 633.671 212.633 520.1225zM289.183 168.1999999999999C308.5555 196.535 334.0305 228.43 367.8985 263.13C440.5995 337.61 526.4300000000001 395.61 625.6949999999999 427.635C627.085 428.045 628.02 428.32 628.8000000000001 428.55C620.55 446.745 612.81 462.975 605.015 478.2900000000001C513.215 451.5649999999999 416.515 434.85 320.1395 426.19C273.1595 421.9700000000001 231.0025 420.0949999999999 200 419.78C200.051 324.4400000000001 233.4575 236.9 289.183 168.1999999999999zM750.225 49.1700000000001C745.005 76.275 738.345 106.4699999999999 729.495 141.3C713.445 204.4400000000001 693.34 269.4 668.65 334.61C568.56 298.285 488.787 245.13 427.1545 181.755C397.452 151.215 375.622 122.315 361.3210000000001 98.9849999999999C427.9460000000001 49.365 510.545 20 600 20C653.13 20 703.845 30.36 750.225 49.1700000000001zM843.89 102.93C920.365 161.84 974.925 247.8 993.2600000000002 346.485C976.2650000000002 350.675 954.7 354.975 930.98 358.27C878.7800000000001 365.515 825.07 366.725 772.045 359.91C794.665 296.18 813.2099999999999 233.3400000000001 828.04 173.1950000000001C834.515 146.93 839.79 123.21 843.89 102.93zM600 -80C323.8575 -80 100 143.86 100 420C100 696.1424999999999 323.8575 920 600 920C876.14 920 1100 696.1424999999999 1100 420C1100 143.86 876.14 -80 600 -80z" /><glyph glyph-name="skype-fill"
            unicode="&#xF14B;"
            horiz-adv-x="1200" d="M665.4955 0.015C644.1455000000001 -3.2849999999999 622.2705000000001 -5 600.0005 -5C365.2785 -5 174.9995 185.28 174.9995 420C174.9995 442.275 176.7125 464.145 180.015 485.495C160.8465 521.9459999999999 149.9995 563.4565 149.9995 607.5C149.9995 752.4745 267.5245 870 412.4995 870C456.543 870 498.053 859.153 534.5055000000001 839.9845C555.8505 843.2865 577.7255 845 600.0005 845C834.7205 845 1025.0004999999999 654.721 1025.0004999999999 420C1025.0004999999999 397.725 1023.2855 375.855 1019.9855000000002 354.505C1039.1505 318.055 1050.0004999999999 276.5450000000001 1050.0004999999999 232.5C1050.0004999999999 87.525 932.4755000000002 -30 787.5005 -30C743.4555 -30 701.9455 -19.155 665.4955 0.015zM602.6105 162.225L600.5805 162.1900000000001C744.2205 162.1900000000001 815.7405 231.485 815.7405 324.3400000000001C815.7405 384.26 788.1755 447.9 679.4705 472.24L580.3155 494.25C542.5605 502.835 499.2075 514.2750000000001 499.2075 550.0125C499.2075 585.75 530.1555000000001 610.6500000000001 585.3905000000001 610.6500000000001C696.9205 610.6500000000001 686.7255 534.2625 741.9655 534.2625C770.7305 534.2625 796.6005 551.3625 796.6005 580.7625C796.6005 649.2375 686.7255 700.7249999999999 593.8155 700.7249999999999C492.74 700.7249999999999 385.161 657.825 385.161 543.5625C385.161 488.625 404.827 430.0500000000001 513.1205000000001 402.9L647.5855 369.3350000000001C688.3805 359.25 698.4955000000001 336.4100000000001 698.4955000000001 315.75C698.4955000000001 281.4 664.3155 247.8400000000001 602.6105 247.8400000000001C481.7605 247.8400000000001 498.681 340.725 433.8930000000001 340.725C404.8645 340.725 383.77 320.815 383.77 292.125C383.77 236.44 451.3405 162.225 602.6105 162.225z" /><glyph glyph-name="google-fill"
            unicode="&#xEDD4;"
            horiz-adv-x="1200" d="M163.182 644.543C245.4545 807.954 414.5420000000001 920 610 920C744.77 920 857.9499999999999 870.4525 944.545 789.7725L801.135 646.363C749.32 695.9075 683.405 721.1365000000001 610 721.1365000000001C479.771 721.1365000000001 369.542 633.1815 330.2275 515C320.225 485 314.543 452.955 314.543 420C314.543 387.045 320.225 355 330.2275 325C369.542 206.8199999999999 479.771 118.865 610 118.865C677.27 118.865 734.545 136.59 779.32 166.5899999999999C832.27 202.045 867.4999999999999 255 879.0899999999999 317.5H610V510.91H1080.905C1086.82 478.1850000000001 1090 444.0900000000001 1090 408.635C1090 256.365 1035.455 128.185 940.905 41.135C858.18 -35.23 745 -80 610 -80C414.5420000000001 -80 245.4545 32.045 163.182 195.4550000000001C129.319 262.9550000000001 110 339.3200000000001 110 420C110 500.6799999999999 129.319 577.0445 163.182 644.543z" /><glyph glyph-name="reddit-fill"
            unicode="&#xF061;"
            horiz-adv-x="1200" d="M600.0005 -80C323.857 -80 99.9995 143.86 99.9995 420C99.9995 696.1424999999999 323.857 920 600.0005 920C876.1405000000001 920 1100.0004999999999 696.1424999999999 1100.0004999999999 420C1100.0004999999999 143.86 876.1405000000001 -80 600.0005 -80zM933.5005 420C932.4505 448.75 914.6105 474.1999999999999 887.9404999999999 485C861.2755000000001 495.795 830.7555 489.9200000000001 810.0005000000001 470C753.1205 508.665 686.2605000000001 530.025 617.5005000000001 531.5L650.0005 687.5L757.0005 665C759.6255 640.5745 779.6105 621.6765 804.1455 620.414C828.6755 619.152 850.4955 635.8995 855.6155 659.9265C860.7354999999999 683.953 847.6405000000001 708.1405 824.7255 716.9905C801.8104999999999 725.841 775.8555 716.732 763.5005000000001 695.5L641.0005 720C636.9505 720.8879999999999 632.7205 720.1185 629.2405000000001 717.864C625.7655 715.6095 623.3405 712.057 622.5005000000001 708L585.5005000000001 534.5C515.8955 533.4504999999999 448.1130000000001 512.075 390.4995 473C369.4365 492.8200000000001 338.6595 498.335 312.0255 487.0600000000001C285.3915000000001 475.79 267.9225 449.86 267.4840000000001 420.9400000000001C267.0455 392.025 283.7195000000001 365.5750000000001 309.9995 353.5C309.4365 346.1750000000001 309.4365 338.8250000000001 309.9995 331.5C309.9995 219.4999999999999 440.4995 128.5000000000001 601.5005000000001 128.5000000000001C762.5005 128.5000000000001 893.0005000000001 219.4999999999999 893.0005000000001 331.5C893.5605 338.8250000000001 893.5605 346.1750000000001 893.0005000000001 353.5C918.1805 366.015 933.9355 391.885 933.5005 420zM433.4995 370C433.4995 397.615 455.8850000000001 420 483.4995 420C511.1155 420 533.5005 397.615 533.5005 370C533.5005 342.385 511.1155 320 483.4995 320C470.2385 320 457.5210000000001 325.27 448.144 334.645C438.767 344.02 433.4995 356.74 433.4995 370zM724.0005 232.5C688.5255 205.765 644.8805 192.1600000000001 600.5005 194C556.1205 192.1600000000001 512.4755 205.765 476.9995 232.5C472.5945 237.865 472.979 245.7 477.889 250.61C482.7985 255.52 490.6319999999999 255.905 495.9995 251.5C526.0605 229.4500000000001 562.7555 218.3349999999999 600.0005 220C637.2905000000001 217.9699999999999 674.1555000000001 228.73 704.5005 250.5C708.0705 253.985 713.2305 255.295 718.0355000000001 253.9450000000001C722.8355 252.5900000000001 726.5555 248.78 727.7855 243.945C729.0155000000001 239.11 727.5705 233.985 724.0005 230.5V232.5zM715.0005 318C687.3855 318 665.0005 340.385 665.0005 368C665.0005 395.615 687.3855 418 715.0005 418C742.6155000000001 418 765.0005 395.615 765.0005 368C765.5505 354.31 760.4555 340.99 750.9105000000001 331.165C741.3605000000001 321.3350000000001 728.2005 315.85 714.5005000000001 316L715.0005 318z" /><glyph glyph-name="behance-fill"
            unicode="&#xEAB9;"
            horiz-adv-x="1200" d="M368.3709169340799 770.0005000000001C400.33841693408 770.0005000000001 429.8464169340799 767.527 456.8954169340799 760.1065000000001C483.9449169340799 755.1595000000002 506.0749169340799 745.2655 525.7499169340799 732.8980000000001C545.4199169340799 720.5305000000001 560.17491693408 703.2165 570.0099169340799 680.9550000000002C579.84491693408 658.6935000000001 584.7649169340799 631.4850000000001 584.7649169340799 601.8030000000001C584.7649169340799 567.174 577.3899169340799 537.4895000000001 560.17491693408 515.2295000000001C545.4199169340799 492.9695000000001 520.82991693408 473.1795 491.3219169340799 458.3395000000001C533.1249169340799 445.9745 565.08991693408 423.7095000000001 584.7649169340799 394.0295000000001C604.43491693408 364.3495000000001 616.7299169340799 327.2445000000001 616.7299169340799 285.1945000000001C616.7299169340799 250.5645000000001 609.3549169340799 220.8845000000001 597.05991693408 196.1494999999999C584.7649169340799 171.4145 565.08991693408 149.1545000000001 542.95991693408 134.3095C520.82991693408 119.4695 493.7809169340799 107.1045000000001 464.2729169340799 99.6845000000001C434.76441693408 92.2645000000002 405.25641693408 87.3145000000001 375.7479169340799 87.3145000000001H46.2399169340799V770.0005000000001H368.3709169340799zM348.69891693408 492.9695000000001C375.7479169340799 492.9695000000001 397.87941693408 500.3895000000001 415.09241693408 512.7545C432.30541693408 525.1245000000001 439.6824169340799 547.3860000000002 439.6824169340799 574.5945000000002C439.6824169340799 589.4355 437.2234169340799 604.2765000000002 432.30541693408 614.1705000000002C427.3874169340799 624.0645 420.01041693408 631.4850000000001 410.1744169340799 638.9055000000001C400.33841693408 643.8525000000002 390.5024169340799 648.7995000000001 378.2069169340799 651.2730000000001C365.91191693408 653.7465000000002 353.61691693408 653.7465000000002 338.8629169340799 653.7465000000002H196.2399169340799V492.9695000000001H348.69891693408zM356.07591693408 201.0945C370.8299169340799 201.0945 385.5844169340799 203.5695000000001 397.87941693408 206.0445C410.1744169340799 208.5145000000002 422.4694169340799 213.4645000000001 432.30541693408 220.8845000000001C442.14141693408 228.3045 449.5184169340799 235.7245000000001 456.8954169340799 248.0945000000001C461.8139169340799 260.4595 466.7319169340799 275.2995 466.7319169340799 292.6145000000001C466.7319169340799 327.2445000000001 456.8959169340799 351.9795000000001 437.2234169340799 369.2945000000001C417.55141693408 384.1345000000001 390.5024169340799 391.5545 358.53491693408 391.5545H196.2399169340799V201.0945H356.07591693408zM830.66491693408 203.5695000000001C850.33991693408 183.7795000000001 879.84491693408 173.8895 919.1899169340797 173.8895C946.23991693408 173.8895 970.82991693408 181.3095000000001 990.49991693408 193.6745C1010.17491693408 208.5145000000002 1022.46991693408 223.3595 1027.38991693408 238.1995H1147.87991693408C1128.2049169340798 178.8345 1098.69991693408 136.7845000000002 1059.35491693408 109.5745000000001C1020.00991693408 84.8395000000001 973.28991693408 69.9995 916.72991693408 69.9995C877.38491693408 69.9995 842.95991693408 77.4195000000001 810.99491693408 89.7895C779.0249169340799 102.1545 754.43491693408 119.4695 732.3049169340799 144.2045000000001C710.17491693408 166.4695000000001 692.95991693408 193.6745 683.1249169340799 225.8295000000001C670.82991693408 257.9845000000001 665.9099169340799 292.6145000000001 665.9099169340799 332.1895000000001C665.9099169340799 369.2945000000001 670.82991693408 403.9245 683.1249169340799 436.0795000000001C695.4199169340799 468.2345 712.6349169340799 495.4445 734.7649169340799 520.1795000000002C756.89491693408 542.4390000000001 783.9449169340799 562.2270000000001 813.45491693408 574.5945000000002C845.4199169340799 586.9620000000002 877.38491693408 594.3825000000002 916.72991693408 594.3825000000002C958.5349169340798 594.3825000000002 995.4199169340798 586.9620000000002 1027.38991693408 569.6475C1059.35491693408 552.3330000000001 1083.94491693408 532.5445000000002 1103.61491693408 502.8645000000001C1123.2899169340799 475.6545 1138.0449169340798 443.4995000000001 1147.87991693408 408.8695000000001C1152.79491693408 374.2395000000001 1155.2549169340798 339.6145000000001 1152.79491693408 300.0345000000001H796.2399169340799C796.2399169340799 260.4595 810.99491693408 223.3595 830.66491693408 203.5695000000001zM985.5849169340798 463.2845000000002C968.3699169340798 480.5995000000001 941.3199169340799 490.4945000000001 909.35491693408 490.4945000000001C887.2249169340799 490.4945000000001 870.0099169340799 485.5495000000001 855.2549169340799 478.1295000000001C840.49991693408 470.7095 830.66491693408 460.8145000000001 820.82991693408 450.9195C810.99491693408 441.0245000000001 806.07491693408 428.6595000000001 803.6149169340799 416.2895000000001C801.15991693408 403.9245 798.6999169340799 394.0295000000001 798.6999169340799 384.1345000000001H1020.00991693408C1015.0949169340798 421.2395000000001 1002.7949169340798 445.9745 985.5849169340798 463.2845000000002zM769.1899169340799 723.0045H1044.5999169340798V656.22H769.1899169340799V723.0045z" /><glyph glyph-name="steam-fill"
            unicode="&#xF190;"
            horiz-adv-x="1200" d="M599.127 920C336.5845 920 121.2929999999999 717.5 100.918 460.125L368.918 349.375C391.626 364.8349999999999 419.043 373.9600000000001 448.5845 373.9600000000001C451.2094999999999 373.9600000000001 453.793 373.79 456.418 373.7099999999999L575.627 546.2914999999999V548.75C575.627 652.7085 660.127 737.25 764.127 737.25C868.042 737.25 952.627 652.625 952.627 548.625C952.627 444.625 868.042 360.0850000000001 764.127 360.0850000000001H759.752L589.9169999999999 238.79C589.9169999999999 236.625 590.0819999999999 234.415 590.0819999999999 232.165C590.0819999999999 154.0400000000001 526.957 90.665 448.8345 90.665C380.7095 90.665 323.168 139.54 310.043 204.29L118.1679999999999 283.75C177.5844999999999 73.875 370.2509999999999 -80 599.127 -80C875.252 -80 1099.082 143.875 1099.082 420C1099.082 696.125 875.207 920 599.127 920zM352.793 186.6650000000001C363.7095 164.0400000000001 382.543 145.0400000000001 407.543 134.5849999999999C461.5845 112.125 523.9169999999999 137.75 546.377 191.875C557.332 218.1249999999999 557.377 246.8350000000001 546.582 273.0850000000001C535.7919999999999 299.3350000000001 515.332 319.79 489.2095 330.7100000000001C463.2094999999999 341.54 435.4595 341.0849999999999 410.9595 331.9600000000001L474.4179999999999 305.7100000000001C514.252 289.0400000000001 533.127 243.2100000000001 516.457 203.415C499.917 163.54 454.0845 144.6650000000001 414.2095 161.25L352.793 186.6650000000001zM889.7919999999999 548.875C889.7919999999999 618.125 833.4169999999999 674.5 764.1669999999999 674.5C694.7919999999999 674.5 638.5419999999999 618.125 638.5419999999999 548.875C638.5419999999999 479.5 694.7919999999999 423.25 764.1669999999999 423.25C833.457 423.25 889.7919999999999 479.5 889.7919999999999 548.875zM764.457 643.5C816.502 643.5 858.877 601.25 858.877 549.0835C858.877 496.9599999999999 816.502 454.71 764.457 454.71C712.252 454.71 670.082 496.9599999999999 670.082 549.0835C670.082 601.25 712.2919999999999 643.5 764.457 643.5z" /><glyph glyph-name="spotify-fill"
            unicode="&#xF17C;"
            horiz-adv-x="1200" d="M600.0005 920C324.9995 920 99.9995 695 99.9995 420C99.9995 145 324.9995 -80 600.0005 -80C875.0005000000001 -80 1100.0004999999999 145 1100.0004999999999 420C1100.0004999999999 695 877.5005 920 600.0005 920zM787.5005 187.5000000000001C670.0005 260 522.5005000000001 275.04 347.4575 235.0400000000001C330.0410000000001 229.9599999999999 314.9995 242.5 309.9995 257.5C304.9995 275.04 317.4995 290 332.4995 295C522.5005000000001 337.54 687.5005 320 817.5005 240C835.0005000000001 232.5 837.4555 212.54 830.0405000000001 197.5C820.0405000000001 182.5400000000001 802.5405000000001 177.4999999999999 787.5005 187.5000000000001zM837.4555 322.5C702.5005 405 497.4995 430 339.9995 380C320.0410000000001 375 297.4995 385 292.4995 405C287.4995 425 297.4995 447.5400000000001 317.4995 452.54C500.0005 507.5 725.0005 479.9599999999999 880.0005 385C895.0405000000001 377.4600000000001 902.5005 352.5 890.0405000000001 335C877.5005 317.5 855.0005 310 837.4555 322.5zM314.9995 532.4585C289.9995 525 264.9995 540 257.4995 562.5C249.9995 587.5415 264.9995 612.5 287.4995 620.0415C464.9995 672.5415 757.5005 662.5415 942.5405 552.5C965.0005 540 972.5005000000002 510.0000000000001 960.0005000000002 487.5C947.5405 469.96 917.5005 462.54 895.0405000000001 475C735.0005000000001 570 467.4995 580 314.9995 532.4585z" /><glyph glyph-name="soundcloud-line"
            unicode="&#xF164;"
            horiz-adv-x="1200" d="M200 545C227.614 545 250 522.615 250 495V145C250 117.3850000000001 227.614 95 200 95C172.386 95 150 117.3850000000001 150 145V495C150 522.615 172.386 545 200 545zM350 495C377.614 495 400 472.615 400 445V145C400 117.3850000000001 377.614 95 350 95C322.386 95 300 117.3850000000001 300 145V445C300 472.615 322.386 495 350 495zM500 695C527.615 695 550 672.614 550 645V145C550 117.3850000000001 527.615 95 500 95C472.3855 95 450 117.3850000000001 450 145V645C450 672.614 472.3855 695 500 695zM750 745C911.92 745 1043.88 616.7215000000001 1049.7949999999998 456.245L1049.95 443.235C1134.78 431.125 1200 358.1800000000001 1200 270C1200 176.5699999999999 1126.7849999999999 100.245 1034.6 95.2599999999999L1025 95H849.9499999999999C822.34 95 799.95 117.3850000000001 799.95 145C799.945 170.6399999999999 819.2449999999999 191.7750000000001 844.115 194.6650000000001L849.9499999999999 195L1022.305 194.965L1029.2 195.1150000000001C1068.7549999999999 197.2500000000001 1100 230.125 1100 270C1100 305.08 1075.71 335.05 1042.56 342.955L1035.82 344.24L947.335 356.87L949.95 446.2L949.755 454.98C944.715 557.4945 862.495 639.7165 759.98 644.7550000000001L750 645C736.605 645 723.4350000000001 643.694 710.615 641.1425L699.95 638.7L699.95 144.975C699.95 119.3449999999999 680.6600000000001 98.2249999999999 655.805 95.3349999999999L649.975 95C622.375 95 600 117.3750000000001 599.995 144.975L599.95 704.8375C644.09 730.38 695.335 745 750 745zM50 445C77.614 445 100 422.615 100 395V195C100 167.3850000000001 77.614 145 50 145C22.38575 145 0 167.3850000000001 0 195V395C0 422.615 22.38575 445 50 445z" /><glyph glyph-name="twitch-line"
            unicode="&#xF239;"
            horiz-adv-x="1200" d="M214.9995 890H1050.0004999999999V305L815.0005 70.0000000000001H620.0005L494.9995 -50H349.9995V70.0000000000001H149.9995V730L214.9995 890zM249.9995 170.0000000000001H449.9995V50H454.7685L579.7705 170.0000000000001H773.5755L950.0005000000002 346.42V790H249.9995V170.0000000000001zM750.0005 640H850.0005000000001V405H750.0005V640zM750.0005 640H850.0005000000001V405H750.0005V640zM500.0005 640H600.0005V405H500.0005V640z" /><glyph glyph-name="whatsapp-line"
            unicode="&#xF2BC;"
            horiz-adv-x="1200" d="M362.631 95.2800000000001L398.8675000000001 74.1499999999999C459.405 38.8499999999999 528.2055 20 600.0005 20C820.9155000000001 20 1000.0005000000002 199.085 1000.0005000000002 420C1000.0005000000002 640.914 820.9155000000001 820 600.0005 820C379.0855 820 199.9995 640.914 199.9995 420C199.9995 348.1850000000001 218.861 279.36 254.1835000000001 218.81L275.3025 182.6099999999999L242.628 62.53L362.631 95.2800000000001zM100.2085 -80L167.8065 168.425C124.6975 242.3200000000001 99.9995 328.275 99.9995 420C99.9995 696.1424999999999 323.857 920 600.0005 920C876.1405000000001 920 1100.0004999999999 696.1424999999999 1100.0004999999999 420C1100.0004999999999 143.86 876.1405000000001 -80 600.0005 -80C508.3054999999999 -80 422.3760000000001 -55.3199999999999 348.4935000000001 -12.2350000000001L100.2085 -80zM419.5665 654.5835C426.2605 655.0540000000001 432.977 655.126 439.68 654.799C442.3880000000001 654.6210000000001 445.083 654.308 447.78 653.9965C455.7430000000001 653.077 464.4995 648.2275 467.4435 641.553C482.3595 607.732 496.8325 573.7175 510.8605 539.5185C513.9555 531.969 512.0905 522.1835000000001 506.2005 512.715C503.2105 507.86 498.5145 501.0500000000001 493.0744999999999 494.085C487.42 486.85 475.25 473.545 475.25 473.545C475.25 473.545 470.3194999999999 467.635 472.178 460.28C472.902 457.5 475.211 453.45 477.3045 450.045C478.4640000000001 448.16 479.5405 446.475 480.239 445.31C493.035 423.9450000000001 510.2355 402.285 531.2455 381.9200000000001C537.2655 376.0850000000001 543.1055 370.13 549.3855 364.6C572.8005 343.9550000000001 599.2905000000001 327.0850000000001 627.9005 314.5900000000001L628.1555000000001 314.475C632.3805 312.655 634.5505 311.66 640.7355 309.035C643.8555 307.7150000000001 647.0455000000001 306.5750000000001 650.3205 305.7100000000001C651.5055000000001 305.4 652.7205 305.225 653.9405 305.14C662.0255000000001 304.655 666.7005 309.8399999999999 668.6955 312.225C704.8705 356.05 708.1805 358.91 708.4305 358.89V358.81C713.1855 363.8200000000001 720.6605 365.56 727.3305 365.15C730.3755 364.9650000000001 733.4055000000001 364.38 736.1755 363.115C762.7655 350.985 806.2405000000001 332.0650000000001 806.2405000000001 332.0650000000001L835.3155 318.995C840.1855 316.645 844.6305 311.11 844.8455 305.73C844.9755000000001 302.385 845.3354999999999 296.985 844.1405000000001 287.105C842.5755 274.17 838.6405000000001 258.5950000000001 834.7305 250.4350000000001C831.9805 244.7099999999999 828.4205000000001 239.63 824.2805 235.33C818.6655000000001 229.5 814.4955000000001 225.9599999999999 807.7455 220.93C803.6355 217.87 801.5055 216.43 801.5055 216.43C794.5605 212.0500000000001 790.6455000000001 209.86 782.3705000000001 205.4549999999999C769.5005 198.5999999999999 755.2805000000001 194.6600000000001 740.7155 193.9100000000001C731.4305 193.435 722.1705000000001 192.7650000000001 712.8955000000001 193.265C712.4855 193.2900000000001 684.4855 197.59 684.4855 197.59C613.3905000000001 216.29 547.6405 251.3200000000001 492.4675 299.9000000000001C481.187 309.8300000000001 470.7255 320.5750000000001 460.0475 331.2050000000001C415.5945000000001 375.4599999999999 381.9415 423.18 361.5350000000001 468.3200000000001C351.472 490.58 345.1 514.4200000000001 344.9995 538.951C344.8150000000001 569.2975 354.75 598.84 373.235 622.9069999999999C376.879 627.6514999999999 380.3375 632.5725 386.305 638.207C392.6245 644.1745 396.6465 647.3779999999999 400.979 649.5945C406.754 652.549 413.0970000000001 654.1289999999999 419.5665 654.5835z" /><glyph glyph-name="medium-fill"
            unicode="&#xEF2B;"
            horiz-adv-x="1200" d="M670.465 420.00525C670.465 247.49525 531.5699999999999 107.64025 360.227 107.64025C188.8855 107.64025 50 247.4502500000001 50 420.00525C50 592.5577499999999 188.896 732.3597500000001 360.227 732.3597500000001C531.56 732.3597500000001 670.465 592.51575 670.465 420.00525zM1010.8 420.00525C1010.8 257.60525 941.345 125.9702500000001 855.6800000000001 125.9702500000001C770.015 125.9702500000001 700.5600000000001 257.65025 700.5600000000001 420.00525C700.5600000000001 582.36075 770.015 714.04025 855.6800000000001 714.04025C941.345 714.04025 1010.8 582.36075 1010.8 420.00525zM1150 420.00525C1150 274.50525 1125.57 156.5602500000001 1095.44 156.5602500000001C1065.315 156.5602500000001 1040.885 274.5452500000001 1040.885 420.00525C1040.885 565.4637499999999 1065.315 683.44875 1095.455 683.44875C1125.5900000000001 683.44875 1150 565.4952499999999 1150 420.00525z" /><glyph glyph-name="snapchat-fill"
            unicode="&#xF15B;"
            horiz-adv-x="1200" d="M593.5506091865911 -49.1125000000001C534.035609186591 -49.1125000000001 494.3561091865911 -21.0224999999999 458.9136091865911 3.7175000000001C433.7246091865911 21.5525000000001 410.0966091865912 38.4925000000001 382.2326091865912 43.1725C368.6351091865912 45.6274999999999 354.8151091865912 46.5175 342.1091091865912 46.5175C318.4806091865911 46.5175 299.7566091865912 42.9525 286.3821091865912 40.2775C277.9116091865912 38.7175000000001 270.7781091865911 37.3775000000001 265.2056091865911 37.3775000000001C259.4101091865912 37.3775000000001 252.0541091865912 38.9375000000001 249.1561091865912 48.7474999999999C246.7041091865912 56.7725000000002 245.1436091865912 64.3475000000001 243.5836091865912 71.7075000000001C239.5711091865912 90.2075 236.2276091865912 101.5775000000001 229.3171091865912 102.6875C154.8656091865912 114.0575 110.2841091865912 131.2225 101.5906091865912 151.5075000000002C100.9216091865912 153.7375000000001 100.0301091865912 155.9675000000001 100.0301091865912 157.7475C99.5841091865912 163.9875 104.0426091865912 169.1175000000002 110.2841091865912 170.2325C169.3546091865912 180.0375 222.4071091865912 211.4675 267.2116091865912 263.1825000000001C301.9856091865912 303.3075 318.9266091865911 342.0925000000001 320.4871091865912 346.3275C320.4871091865912 346.7775000000001 320.9326091865912 346.7775000000001 320.9326091865912 346.7775000000001C329.4036091865911 364.3825000000001 331.1866091865911 379.3175000000001 326.0596091865912 391.5775000000001C316.4746091865911 414.5375 284.8216091865911 424.3475000000001 263.1996091865912 431.0325000000001C257.6266091865912 432.5975000000001 252.9456091865912 434.3775000000001 248.9331091865912 435.7175000000001C230.4316091865912 443.0725000000001 199.6706091865912 458.6775 203.6826091865911 480.2975000000001C206.5806091865912 495.9025 227.3111091865912 507.0475000000001 244.2521091865912 507.0475000000001C248.9331091865912 507.0475000000001 252.9456091865912 506.3775000000001 256.2891091865911 504.5925000000001C275.2366091865912 495.9025 292.4006091865912 491.4425000000001 307.1126091865912 491.4425000000001C325.3911091865912 491.4425000000001 334.0846091865912 498.3525000000001 336.3136091865912 500.5825000000001C335.8676091865912 510.3925 335.1991091865912 520.6425 334.5301091865912 530.2275000000001C330.0721091865912 598.4395000000001 324.9451091865912 683.1445 346.5676091865912 731.739C411.4341091865912 877.0755 549.1906091865911 888.6665 589.9856091865912 888.6665C591.1006091865911 888.6665 607.8156091865911 889.1125000000001 607.8156091865911 889.1125000000001C608.4856091865911 889.1125000000001 609.3756091865911 889.1125000000001 610.2706091865912 889.1125000000001C651.0606091865911 889.1125000000001 788.8206091865911 877.744 853.6856091865911 732.1845000000001C875.5306091865912 683.5905000000001 870.180609186591 598.662 865.7206091865911 530.6775000000001L865.2756091865912 527.3325000000001C864.8306091865911 518.1925000000001 864.160609186591 509.4975000000001 863.7156091865912 500.5825000000001C865.9456091865911 498.7975 873.9706091865911 492.1125000000001 890.4656091865912 491.8875C904.7306091865912 492.3325 920.335609186591 497.0175 938.165609186591 505.0425C943.7406091865912 507.4925000000001 949.5356091865912 508.3825000000001 953.770609186591 508.3825000000001C960.010609186591 508.3825000000001 966.2556091865912 506.8225000000001 971.605609186591 505.0425H972.0506091865911C986.985609186591 499.4675000000001 996.7906091865912 488.9925000000001 996.7906091865912 478.0675C997.240609186591 467.8125000000001 989.2156091865912 452.2125000000001 951.0956091865912 436.8325000000001C947.085609186591 435.2725000000001 942.4006091865912 433.4875000000001 936.8306091865912 432.1475000000001C915.6556091865912 425.6825000000001 884.0006091865912 415.4325000000001 873.9706091865911 392.6925000000001C868.3956091865912 380.6575000000001 870.6256091865911 365.2775000000002 879.0956091865911 347.8875000000001C879.0956091865911 347.4425000000001 879.540609186591 347.4425000000001 879.540609186591 347.4425000000001C881.9956091865911 341.2025000000001 946.4156091865912 194.9725000000001 1089.7456091865913 171.1225000000001C1095.9856091865913 170.0075000000001 1100.0006091865912 164.8825000000001 1100.0006091865912 158.6425000000001C1100.0006091865912 156.4125 1099.5556091865913 154.1825000000001 1098.4406091865912 152.1775C1089.7456091865913 131.6675 1045.6106091865913 114.9475000000001 970.7106091865912 103.3575000000001C963.8006091865911 102.2425000000001 960.4606091865912 90.8775000000001 956.4456091865912 72.3725000000001C954.8856091865912 64.7975 953.1006091865912 57.4375 950.875609186591 49.4125C948.6456091865912 42.0575000000001 943.965609186591 38.0475 935.9406091865912 38.0475H934.8256091865912C929.6956091865912 38.0475 922.7856091865912 38.7175000000001 913.6456091865912 40.4975000000001C897.6006091865911 43.8425000000001 879.9906091865911 46.2925 857.9206091865912 46.2925C844.7706091865911 46.2925 831.1706091865912 45.1775000000001 817.7956091865912 42.9525C790.1556091865912 38.4925000000001 766.3056091865911 21.3275000000001 741.1156091865911 3.4975000000001C705.2256091865911 -21.0224999999999 665.3256091865911 -49.1125000000001 606.2556091865911 -49.1125000000001C606.2556091865911 -49.1125000000001 595.3356091865911 -49.1125000000001 593.5506091865911 -49.1125000000001z" /><glyph glyph-name="paypal-line"
            unicode="&#xEFDC;"
            horiz-adv-x="1200" d="M436.8965507313372 3.3325H514.4535507313371L541.3435507313371 172.1075000000001C552.1435507313371 240.1675 610.8185507313372 290.4025000000001 679.8085507313372 290.4025000000001H704.8085507313372C838.6935507313372 290.4025000000001 907.8335507313373 339.5625 932.3585507313372 465.5475C942.753550731337 518.8475 938.1935507313372 552.076 923.778550731337 570.644C863.4435507313372 417.9475 734.3285507313371 362.7025 575.7085507313371 362.7025H531.4735507313371C512.2835507313371 362.7025 491.8105507313372 352.2225 488.8890507313372 333.6575000000001L436.8965507313372 3.3325zM189.7070507313372 18.0025000000001C172.7740507313372 18.0025000000001 159.8405507313372 33.1025 162.4740507313372 49.8675L296.2070507313372 897.8675000000001C299.7405507313371 920.201 319.0070507313372 936.6675 341.6070507313372 936.6675H662.7735507313371C773.4085507313371 936.6675 859.8735507313371 913.301 907.7385507313372 858.7675C951.2335507313372 809.241 963.9035507313372 754.549 951.3135507313372 674.167C969.273550731337 664.6010000000001 984.673550731337 652.934 997.0735507313371 638.8675000000001C1038.008550731337 592.234 1046.008550731337 525.8675000000001 1030.5085507313372 446.4025000000001C993.4735507313372 256.1325000000001 866.7085507313371 190.4025 704.8085507313372 190.4025H679.8085507313372C660.0385507313371 190.4025 643.2085507313371 175.9675000000001 640.1085507313371 156.4325L604.9735507313371 -62.7325000000001C601.8735507313371 -82.2674999999999 585.0385507313371 -96.6675 565.2735507313372 -96.6675H348.1405507313372C333.3070507313372 -96.6675 321.9740507313371 -83.4325000000001 324.2740507313372 -68.7975000000001L337.9740507313371 18.0025000000001H189.7070507313372zM531.4735507313371 462.7025H575.7085507313371C735.1835507313372 462.7025 820.4385507313372 523.3325 849.8285507313371 674.1625C850.8035507313372 679.2395 851.678550731337 684.3040000000001 852.5135507313371 689.617C860.813550731337 742.5740000000001 855.0135507313371 767.2635 832.6035507313371 792.7810000000001C809.3385507313371 819.2860000000001 752.4485507313371 836.6675 662.7735507313371 836.6675H387.7915507313372L274.4545507313371 118.0025000000001H352.5060507313371L388.9940507313372 349.4075000000001L389.3645507313372 349.3525000000001C404.3995507313372 415.1875 462.9285507313371 462.7025 531.4735507313371 462.7025z" /><glyph glyph-name="refresh-line"
            unicode="&#xF064;"
            horiz-adv-x="1200" d="M273.1285000000001 798.369C360.778 874.156 475.035 920 600 920C876.14 920 1100 696.1424999999999 1100 420C1100 313.195 1066.51 214.21 1009.46 132.97L850 420H1000C1000 640.914 820.915 820 600 820C492.491 820 394.8885 777.5865 323.0115 708.579L273.1285000000001 798.369zM926.8700000000002 41.63C839.22 -34.1550000000002 724.965 -80 600 -80C323.8575 -80 100 143.86 100 420C100 526.807 133.4895 625.792 190.54 707.028L350 420H200C200 199.085 379.086 20 600 20C707.51 20 805.11 62.415 876.99 131.4200000000001L926.8700000000002 41.63z" /><glyph glyph-name="notification-line"
            unicode="&#xEF9A;"
            horiz-adv-x="1200" d="M250 157.5H950V505.9300000000001C950 700.097 793.3 857.5 600 857.5C406.7005 857.5 250 700.097 250 505.9300000000001V157.5zM600 957.5C848.5300000000001 957.5 1050 755.326 1050 505.9300000000001V57.5H150V505.9300000000001C150 755.326 351.472 957.5 600 957.5zM475 7.5H725C725 -61.5350000000001 669.035 -117.5 600 -117.5C530.965 -117.5 475 -61.5350000000001 475 7.5z" /><glyph glyph-name="telegram-fill"
            unicode="&#xF1EF;"
            horiz-adv-x="1200" d="M600.0005 -80C323.857 -80 99.9995 143.86 99.9995 420C99.9995 696.1424999999999 323.857 920 600.0005 920C876.1405000000001 920 1100.0004999999999 696.1424999999999 1100.0004999999999 420C1100.0004999999999 143.86 876.1405000000001 -80 600.0005 -80zM444.5070000000001 361.4600000000001L445.1395 361.86C474.1260000000001 266.165 488.619 218.3150000000001 488.619 218.3150000000001C494.2325000000001 202.79 501.9504999999999 200.02 511.3155 201.285C520.6755 202.555 525.6455 207.6200000000001 531.7555000000001 213.515C531.7555000000001 213.515 551.5705 232.64 591.2005 270.885L718.7455 176.5099999999999C741.9855 163.67 758.7655 170.2950000000001 764.5355000000001 198.115L847.4255 589.1795C856.5755 625.579 840.5255 640.178 812.3005 628.623L325.649 440.645C292.4485 427.3000000000001 292.6090000000001 408.725 319.6045000000001 400.4450000000001L444.5070000000001 361.4600000000001z" /><glyph glyph-name="chat-quote-fill"
            unicode="&#xEB6A;"
            horiz-adv-x="1200" d="M1050 907.5C1077.615 907.5 1100 885.114 1100 857.5V157.5C1100 129.8850000000001 1077.615 107.5 1050 107.5H322.75L100 -67.5V857.5C100 885.114 122.386 907.5 150 907.5H1050zM525.765 686.9200000000001C436.4125 648.158 375 569.7284999999999 375 482.24C375 432.5 388.829 401.8150000000001 414.5855 374.4749999999999C430.7990000000001 357.26 456.4525 345 483.279 345C531.605 345 570.78 384.175 570.78 432.5C570.78 478.525 535.225 515.555 490.118 519.735C482.0535 520.485 473.9135 520.345 466.1584999999999 519.275L466.172 523.855C466.4365 545.89 471.115 610.835 548.08 652.48L525.765 686.9200000000001zM775.765 686.9200000000001C686.4150000000001 648.158 625 569.7284999999999 625 482.24C625 432.5 638.83 401.8150000000001 664.585 374.4749999999999C680.8 357.26 706.4549999999999 345 733.28 345C781.605 345 820.7800000000001 384.175 820.7800000000001 432.5C820.7800000000001 478.525 785.225 515.555 740.12 519.735C732.055 520.485 723.9150000000001 520.345 716.16 519.275L716.17 523.855C716.435 545.89 721.115 610.835 798.08 652.48L775.765 686.9200000000001z" /><glyph glyph-name="messenger-line"
            unicode="&#xEF4A;"
            horiz-adv-x="1200" d="M388.199 58.7312849851809C417.6560000000001 71.7212849851811 450.6899999999999 74.1612849851811 481.6085 65.6762849851811C520.1105 55.1662849851811 559.8505 49.886284985181 600.0005 49.9812849851812C829.2555 49.9812849851812 1000.0005000000002 214.3062849851811 1000.0005000000002 434.9812849851811C1000.0005000000002 655.6557849851811 829.2555 819.981284985181 600.0005 819.981284985181C370.7430000000001 819.981284985181 199.9995 655.6557849851811 199.9995 434.9812849851811C199.9995 321.4862849851811 244.7765 221.371284985181 323.278 151.161284985181C352.0405000000001 125.716284985181 369.076 89.5712849851811 370.4005 50.871284985181L388.199 58.7312849851809zM600.0005 919.981284985181C881.6754999999999 919.981284985181 1100.0004999999999 713.656284985181 1100.0004999999999 434.9812849851811C1100.0004999999999 156.3062849851811 881.6754999999999 -50.0187150148189 600.0005 -50.0187150148189C551.1155000000001 -50.133715014819 502.4354999999999 -43.668715014819 455.2745 -30.7937150148188C446.404 -28.3587150148189 436.9655 -29.0587150148189 428.5495 -32.7687150148189L329.3245000000001 -76.5687150148189C317.1495 -81.9487150148188 303.096 -80.918715014819 291.8345000000001 -73.823715014819C280.5725 -66.728715014819 273.5775 -54.498715014819 273.1745 -41.1937150148191L270.4495000000001 47.756284985181C270.079 58.6962849851811 265.2240000000001 69.001284985181 257.0245 76.256284985181C159.7495 163.2562849851812 99.9995 289.206284985181 99.9995 434.9812849851811C99.9995 713.656284985181 318.3245 919.981284985181 600.0005 919.981284985181zM299.7495 293.156284985181L446.6245 526.156284985181C457.7950000000001 543.876284985181 475.8675000000001 556.117284985181 496.4675 559.9162849851809C517.0655 563.7152849851809 538.3155 558.725784985181 555.0755 546.156284985181L671.9005000000001 458.6562849851811C682.5905 450.5912849851811 697.3305 450.5912849851811 708.0255000000001 458.6562849851811L865.8005 578.406284985181C886.8505 594.3812849851811 914.3505 569.181284985181 900.2505 546.806284985181L753.3755 313.8062849851811C742.2055 296.0862849851811 724.1305 283.8462849851811 703.5305000000001 280.046284985181C682.9305 276.2462849851811 661.6805 281.2362849851811 644.9255 293.806284985181L528.1005 381.306284985181C517.4055000000001 389.3712849851811 502.6655 389.3712849851811 491.9745 381.306284985181L334.1995000000001 261.5562849851811C313.1495 245.5812849851811 285.6495 270.781284985181 299.7495 293.156284985181z" /><glyph glyph-name="patreon-line"
            unicode="&#xEFD4;"
            horiz-adv-x="1200" d="M737.5005 170C530.3905000000001 170 362.4995 337.895 362.4995 545C362.4995 752.107 530.3905000000001 920 737.5005 920C944.6055 920 1112.5004999999999 752.107 1112.5004999999999 545C1112.5004999999999 337.895 944.6055 170 737.5005 170zM737.5005 270C889.3755 270 1012.5005 393.12 1012.5005 545C1012.5005 696.8785 889.3755 820 737.5005 820C585.6205 820 462.4995 696.8785 462.4995 545C462.4995 393.12 585.6205 270 737.5005 270zM87.4995 920H337.4995V-80H87.4995V920zM187.4995 820V20H237.4995V820H187.4995z" /><glyph glyph-name="dashboard-line"
            unicode="&#xEC14;"
            horiz-adv-x="1200" d="M700 -30C672.385 -30 650 -7.615 650 20V420C650 447.615 672.385 470 700 470H1000C1027.615 470 1050 447.615 1050 420V20C1050 -7.615 1027.615 -30 1000 -30H700zM200 370C172.386 370 150 392.385 150 420V820C150 847.614 172.386 870 200 870H500C527.615 870 550 847.614 550 820V420C550 392.385 527.615 370 500 370H200zM450 470V770H250V470H450zM200 -30C172.386 -30 150 -7.615 150 20V220C150 247.615 172.386 270 200 270H500C527.615 270 550 247.615 550 220V20C550 -7.615 527.615 -30 500 -30H200zM250 70H450V170H250V70zM750 70H950V370H750V70zM650 820C650 847.614 672.385 870 700 870H1000C1027.615 870 1050 847.614 1050 820V620C1050 592.386 1027.615 570 1000 570H700C672.385 570 650 592.386 650 620V820zM750 770V670H950V770H750z" /><glyph glyph-name="settings-2-line"
            unicode="&#xF0E4;"
            horiz-adv-x="1200" d="M434.3145625000001 819.9999375L564.6460625 950.3299375C584.1710625000001 969.8564374999999 615.8310625 969.8564374999999 635.3560625 950.3299375L765.6860625 819.9999375H950.0010625C977.6160624999998 819.9999375 1000.0010625 797.6139375 1000.0010625 769.9999375V585.6854374999998L1130.3310625000001 455.3539375C1149.8560625 435.8289374999999 1149.8560625 404.1689374999999 1130.3310625000001 384.6439375L1000.0010625 254.3139374999999V69.9989375C1000.0010625 42.3839375000001 977.6160624999998 19.9989375 950.0010625 19.9989375H765.6860625L635.3560625 -110.3310625000001C615.8310625 -129.8560624999999 584.1710625000001 -129.8560624999999 564.6460625 -110.3310625000001L434.3145625000001 19.9989375H250.0000625C222.3860625 19.9989375 200.0000625 42.3839375000001 200.0000625 69.9989375V254.3139374999999L69.6700625 384.6439375C50.1435625 404.1689374999999 50.1435625 435.8289374999999 69.6700625 455.3539375L200.0000625 585.6854374999998V769.9999375C200.0000625 797.6139375 222.3860625 819.9999375 250.0000625 819.9999375H434.3145625000001zM300.0000625 719.9999375V544.2639374999999L175.7360625 419.9989375L300.0000625 295.7339375V119.9989375H475.7360625L600.0010625 -4.2660625L724.2660625 119.9989375H900.0010625V295.7339375L1024.2660625 419.9989375L900.0010625 544.2639374999999V719.9999375H724.2660625L600.0010625 844.2639374999999L475.7360625 719.9999375H300.0000625zM600.0010625 219.9989375C489.5430625 219.9989375 400.0000625 309.5439375000001 400.0000625 419.9989375C400.0000625 530.4569374999999 489.5430625 619.9999375 600.0010625 619.9999375C710.4560624999999 619.9999375 800.0010625 530.4569374999999 800.0010625 419.9989375C800.0010625 309.5439375000001 710.4560624999999 219.9989375 600.0010625 219.9989375zM600.0010625 319.9989375C655.2310625 319.9989375 700.0010625 364.7689375 700.0010625 419.9989375C700.0010625 475.2289375 655.2310625 519.9989375 600.0010625 519.9989375C544.7710625 519.9989375 500.0010625 475.2289375 500.0010625 419.9989375C500.0010625 364.7689375 544.7710625 319.9989375 600.0010625 319.9989375z" /><glyph glyph-name="message-3-line"
            unicode="&#xEF46;"
            horiz-adv-x="1200" d="M100 570.313C100 735.8254999999999 233.827 870 400.033 870H799.965C965.67 870 1100 735.261 1100 570.313V-30H400.033C234.3295 -30 100 104.74 100 269.6850000000001V570.313zM1000 70V570.313C1000 680.2305 910.2449999999998 770 799.965 770H400.033C289.229 770 200 680.771 200 570.313V269.6850000000001C200 159.77 289.756 70 400.033 70H1000zM700 470H800V370H700V470zM400 470H500V370H400V470z" /><glyph glyph-name="menu-add-line"
            unicode="&#xEF3A;"
            horiz-adv-x="1200" d="M900 345L899.9499999999999 195H1050V95H899.9499999999999L900 -55H800L799.95 95H650V195H799.95L800 345H900zM550 195V95H150V195H550zM1050 545V445H150V545H1050zM1050 895V795H150V895H1050z" /><glyph glyph-name="add-circle-line"
            unicode="&#xEA11;"
            horiz-adv-x="1200" d="M550 470V670H650V470H850V370H650V170H550V370H350V470H550zM600 -80C323.8575 -80 100 143.86 100 420C100 696.1424999999999 323.8575 920 600 920C876.14 920 1100 696.1424999999999 1100 420C1100 143.86 876.14 -80 600 -80zM600 20C820.915 20 1000 199.085 1000 420C1000 640.914 820.915 820 600 820C379.086 820 200 640.914 200 420C200 199.085 379.086 20 600 20z" /><glyph glyph-name="sort-asc"
            unicode="&#xF15F;"
            horiz-adv-x="1200" d="M900 845L1100 595H950V-5H850V595H700L900 845zM650 95V-5H100V95H650zM650 445V345H100V445H650zM550 795V695H100V795H550z" /><glyph glyph-name="bookmark-line"
            unicode="&#xEAE5;"
            horiz-adv-x="1200" d="M250 936.085H950C977.6149999999998 936.085 1000 913.699 1000 886.085V-71.0799999999999C1000 -84.885 988.805 -96.085 975 -96.085C970.305 -96.085 965.7 -94.7550000000001 961.72 -92.26L600 134.52L238.2795 -92.26C226.5815 -99.595 211.153 -96.0599999999999 203.8185 -84.3599999999999C201.3235 -80.3799999999999 200 -75.78 200 -71.0799999999999V886.085C200 913.699 222.386 936.085 250 936.085zM900 836.085H300V64.4649999999999L600 252.5500000000001L900 64.4649999999999V836.085z" /><glyph glyph-name="bookmark-fill"
            unicode="&#xEAE4;"
            horiz-adv-x="1200" d="M250 936.085H950C977.6149999999998 936.085 1000 913.699 1000 886.085V-71.0799999999999C1000 -84.885 988.805 -96.085 975 -96.085C970.305 -96.085 965.7 -94.7550000000001 961.72 -92.26L600 134.52L238.2795 -92.26C226.5815 -99.595 211.153 -96.0599999999999 203.8185 -84.3599999999999C201.3235 -80.3799999999999 200 -75.78 200 -71.0799999999999V886.085C200 913.699 222.386 936.085 250 936.085z" /><glyph glyph-name="check-fill"
            unicode="&#xEB7A;"
            horiz-adv-x="1200" d="M493.934 260.9005L953.554 720.5195000000001L1024.2640000000001 649.809L493.934 119.4805L175.736 437.6755L246.447 508.3855L493.934 260.9005z" /><glyph glyph-name="font-size-2"
            unicode="&#xED8C;"
            horiz-adv-x="1200" d="M525 745V-5H425V745H125V845H825V745H525zM925 345V-5H825V345H675V445H1075V345H925z" /><glyph glyph-name="share-forward-2-line"
            unicode="&#xF0F9;"
            horiz-adv-x="1200" d="M200 35.9010000000001H1000V285.9010000000001H1100V-14.0989999999999C1100 -41.7139999999998 1077.615 -64.099 1050 -64.099H150C122.386 -64.099 100 -41.7139999999998 100 -14.0989999999999V285.9010000000001H200V35.9010000000001zM808.58 635.9010000000001L611.09 833.388L681.8 904.099L1000 585.9010000000001L681.8 267.7010000000002L611.09 338.4110000000001L808.58 535.9010000000001H250V635.9010000000001H808.58z" /><glyph glyph-name="mail-unread-line"
            unicode="&#xEF02;"
            horiz-adv-x="1200" d="M755.0000000000001 820C751.72 803.8445 750 787.1235 750 770C750 752.8765000000001 751.72 736.1555 755.0000000000001 720H175.573L553.095 386.9L805.49 612.9295C826.815 586.556 853.3950000000001 564.6065 883.64 548.674L553.59 253.1L150 609.203V20H950V525.001C966.155 521.7215 982.875 520 1000 520C1017.125 520 1033.845 521.7215 1050 525.001V-30C1050 -57.615 1027.615 -80 1000 -80H100C72.386 -80 50 -57.615 50 -30V770C50 797.614 72.386 820 100 820H755.0000000000001zM1000 920C1082.845 920 1150 852.8425 1150 770C1150 687.1575 1082.845 620 1000 620C917.155 620 850 687.1575 850 770C850 852.8425 917.155 920 1000 920z" /><glyph glyph-name="discord-fill"
            unicode="&#xEC37;"
            horiz-adv-x="1200" d="M965.1696422049458 751.1095C896.7196422049459 782.4159999999999 824.0246422049458 805.2325000000001 748.1446422049459 817.9675C738.5946422049459 801.518 727.9796422049459 779.232 720.5496422049458 761.7214999999999C639.8446422049459 773.3955000000001 559.7196422049459 773.3955000000001 480.1271422049459 761.7214999999999C472.6981422049459 779.232 461.5546422049459 801.518 452.5336422049459 817.9675C376.1251422049459 805.2325000000001 303.4301422049459 782.4159999999999 235.4571422049459 751.1095C98.0261422049459 548.412 60.8826422049459 350.4925 79.4546422049459 155.2225C170.7211422049459 88.8925000000001 258.8056422049459 48.5674999999999 345.3501422049459 22.0325C366.5751422049459 50.6874999999999 385.6776422049459 81.4675 402.1271422049459 113.8325000000001C370.8201422049459 125.5075 341.1051422049459 139.8325000000001 312.4516422049459 156.8125000000001C319.8806422049459 162.1175 327.3096422049459 167.9525000000001 334.2076422049459 173.7925C507.1896422049459 94.7275 694.5546422049458 94.7275 865.4096422049458 173.7925C872.8396422049459 167.9525000000001 879.7396422049459 162.1175 887.169642204946 156.8125000000001C858.514642204946 139.8325000000001 828.7996422049459 125.5075 797.4946422049459 113.8325000000001C813.9446422049459 81.4675 833.044642204946 50.6874999999999 854.2696422049459 22.0325C940.7596422049457 48.5674999999999 1029.3746422049458 88.8925000000001 1120.1646422049457 155.2225C1142.9796422049458 381.2625 1084.029642204946 577.594 965.1696422049458 751.1095zM426.0046422049459 275.6725C374.0031422049459 275.6725 331.5531422049459 322.8975 331.5531422049459 380.7325C331.5531422049459 438.5725000000001 372.9416422049459 485.7975000000001 426.0046422049459 485.7975000000001C478.5351422049459 485.7975000000001 521.5146422049459 438.5725000000001 520.4546422049459 380.7325C520.4546422049459 322.8975 478.5351422049459 275.6725 426.0046422049459 275.6725zM774.6796422049459 275.6725C722.6746422049458 275.6725 680.169642204946 322.8975 680.169642204946 380.7325C680.169642204946 438.5725000000001 721.6146422049459 485.7975000000001 774.6796422049459 485.7975000000001C827.2096422049459 485.7975000000001 870.1896422049459 438.5725000000001 869.1246422049459 380.7325C869.1246422049459 322.8975 827.7396422049459 275.6725 774.6796422049459 275.6725z" /><glyph glyph-name="twitter-x-fill"
            unicode="&#xF3E6;"
            horiz-adv-x="1200" d="M910.1739999999998 907.5H1075.5739999999998L714.2239999999999 494.5L1139.324 -67.5H806.474L545.774 273.35L247.476 -67.5H81.9759999999999L468.4759999999999 374.25L60.6759999999999 907.5H401.9759999999999L637.624 595.95L910.1739999999998 907.5zM852.124 31.5H943.7739999999998L352.1759999999999 813.7H253.826L852.124 31.5z" /><glyph glyph-name="add-circle-fill"
            unicode="&#xEA10;"
            horiz-adv-x="1200" d="M600 -80C323.8575 -80 100 143.86 100 420C100 696.1424999999999 323.8575 920 600 920C876.14 920 1100 696.1424999999999 1100 420C1100 143.86 876.14 -80 600 -80zM550 470H350V370H550V170H650V370H850V470H650V670H550V470z" /><glyph glyph-name="threads-line"
            unicode="&#xF3E1;"
            horiz-adv-x="1200" d="M606.981 949.501L606.9159999999999 949.501C452.312 948.43 332.824 896.346 252.4905 794.2245C181.0965 703.4655 144.542 576.791 143.314 419.669V419.5990000000001C144.542 262.4690000000001 181.099 136.5290000000001 252.4905 45.774C332.8275 -56.346 452.9345 -108.431 607.5360000000001 -109.501H607.596C745.0060000000001 -108.546 842.451 -72.511 922.731 7.694C1027.976 112.8390000000001 1024.846 244.769 990.086 325.8490000000001C963.6209999999998 387.544 911.3510000000002 436.9190000000001 841.3109999999999 467.624C832.261 616.8365000000001 748.2909999999999 703.9200000000001 610.2859999999998 704.8015C528.761 705.3045 455.2019999999999 668.8199999999999 410.1485 600.457L492.925 543.674C519.5709999999999 584.1 561.751 603.6015 609.6610000000001 603.1585C679.0260000000001 602.716 724.616 564.4449999999999 737.4110000000001 497.304C698.806 503.3440000000001 657.316 505.099 613.1859999999999 502.569C481.2275 494.9690000000001 394.801 416.9590000000001 400.564 308.7890000000001C406.5915 195.699 516.156 134.0790000000001 620.1859999999999 139.759C744.8009999999999 146.5890000000001 818.8509999999999 238.549 836.4160000000002 355.8290000000001C865.271 337.134 886.5609999999999 313.289 898.6210000000001 285.164C920.6009999999998 233.899 921.9959999999998 149.3490000000001 852.836 80.2489999999999C791.9960000000001 19.4690000000001 718.8609999999999 -7.0260000000001 607.261 -7.8510000000001C483.52 -6.9309999999998 390.655 32.7090000000001 330.383 109.3290000000001C273.7925 181.269 244.2275 285.5990000000001 243.1195 419.999C244.2275 554.4035 273.7925 658.7345 330.383 730.6725C390.655 807.2925 483.518 846.931 607.2560000000001 847.8575000000001C731.9010000000001 846.924 826.4460000000001 807.0905 889.0759999999998 730.0405000000001C923.616 687.542 945.256 636.7395 959.701 584.3055L1056.6860000000001 610.181C1038.546 677.0505 1009.876 740.8235 965.956 794.8565C883.296 896.55 761.886 948.426 606.981 949.501zM618.826 401.0990000000001C663.0259999999998 403.649 704.001 400.8390000000001 740.4110000000001 393.284C733.376 314.4290000000001 700.751 245.979 614.8109999999999 241.259C559.2159999999999 238.129 502.961 262.9440000000001 500.2260000000001 314.309C498.191 352.4940000000001 526.4359999999999 395.774 618.826 401.0990000000001z" /><glyph glyph-name="tiktok-fill"
            unicode="&#xF372;"
            horiz-adv-x="1200" d="M800 607.7315000000001V245C800 65.505 654.495 -80 475 -80C295.5075 -80 150 65.505 150 245C150 424.495 295.5075 570 475 570C500.8149999999999 570 525.925 566.9905 550 561.3035V403.16C527.27 413.9600000000001 501.84 420 475 420C378.35 420 300 341.65 300 245C300 148.35 378.35 70 475 70C571.65 70 650 148.35 650 245V920H800C800 781.929 911.93 670 1050 670V520C955.405 520 868.4799999999999 552.836 800 607.7315000000001z" /><glyph glyph-name="shopping-cart-line"
            unicode="&#xF120;"
            horiz-adv-x="1200" d="M182.0195 245V845H82.0195V945H232.0195C259.634 945 282.0195 922.614 282.0195 895V295H903.9405L1003.9405 695H382.0195V795H1067.9805C1095.5955 795 1117.9805 772.614 1117.9805 745C1117.9805 740.912 1117.4805 736.8389999999999 1116.4855 732.873L991.4854999999998 232.875C985.9254999999998 210.615 965.9255 195 942.9805 195H232.0195C204.4055 195 182.0195 217.3850000000001 182.0195 245zM282.0195 -105C226.791 -105 182.0195 -60.23 182.0195 -5C182.0195 50.23 226.791 95 282.0195 95C337.248 95 382.0195 50.23 382.0195 -5C382.0195 -60.23 337.248 -105 282.0195 -105zM882.0205 -105C826.7905000000001 -105 782.0205 -60.23 782.0205 -5C782.0205 50.23 826.7905000000001 95 882.0205 95C937.2505 95 982.0205 50.23 982.0205 -5C982.0205 -60.23 937.2505 -105 882.0205 -105z" /></font>
</defs>
</svg>
